<?xml version="1.0" standalone="no"?>
<!DOCTYPE svg PUBLIC "-//W3C//DTD SVG 1.1//EN" "http://www.w3.org/Graphics/SVG/1.1/DTD/svg11.dtd" >
<svg xmlns="http://www.w3.org/2000/svg">
<metadata>Generated by IcoMoon</metadata>
<defs>
<font id="icomoon" horiz-adv-x="1024">
<font-face units-per-em="1024" ascent="960" descent="-64" />
<missing-glyph horiz-adv-x="1024" />
<glyph unicode="&#x20;" horiz-adv-x="512" d="" />
<glyph unicode="&#xe900;" glyph-name="pm-user" horiz-adv-x="1152" d="M406.613-52.907h5.547zM1024 451.413c-16.833-15.344-39.319-24.741-64-24.741-52.546 0-95.144 42.596-95.147 95.141v0 65.707h-66.133c-52.43 0-94.933 42.503-94.933 94.933s42.503 94.933 94.933 94.933v0h65.707v42.667c-91.75 87.777-216.414 141.808-353.698 141.808-282.77 0-512-229.23-512-512 0-190.065 103.564-355.941 257.339-444.276l2.492-1.319c0 5.973 0 12.373 0 18.347v0l-2.56 4.267c0 10.667 0 16.64 0 20.053s0 0 0 14.080c2.987 184.32 26.88 237.227 196.693 270.933 18.24-20.805 44.87-33.869 74.552-33.869 1.992 0 3.969 0.059 5.932 0.175l-0.271-0.013c1.692-0.103 3.67-0.162 5.661-0.162 29.682 0 56.312 13.064 74.455 33.756l0.097 0.113c170.667-34.133 193.707-87.893 196.693-276.907 0-11.947 0-14.080 0-13.227v-8.533c129.874 93.683 213.583 244.363 214.186 414.625v0.095s0 2.56 0 3.413zM533.333 362.667c-85.748 3.028-154.112 73.271-154.112 159.48 0 1.833 0.031 3.66 0.092 5.478l-0.007-0.265c0 91.307 22.613 163.84 154.027 163.84s154.027-72.533 154.027-164.693c0.038-1.299 0.060-2.827 0.060-4.361 0-86.2-68.349-156.437-153.809-159.471l-0.277-0.008zM490.24-64c-19.2 0-36.693 2.987-52.907 5.12 15.065-2.398 33.296-4.229 51.783-5.079l1.124-0.041zM768 682.667c0-16.966 13.754-30.72 30.72-30.72v0h128v-128c0-17.437 14.136-31.573 31.573-31.573s31.573 14.136 31.573 31.573v0 128h128c17.084 0 30.933 13.849 30.933 30.933s-13.849 30.933-30.933 30.933v0h-128v128c0 17.437-14.136 31.573-31.573 31.573s-31.573-14.136-31.573-31.573v0-128h-128c-0.001 0-0.002 0-0.003 0-16.966 0-30.72-13.754-30.72-30.72 0-0.15 0.001-0.3 0.003-0.449v0.023z" />
<glyph unicode="&#xe901;" glyph-name="pm-delete" horiz-adv-x="788" d="M752.312 864.807h-193.652v64.247c0 17.089-15.828 30.946-35.353 30.946h-258.95c-19.523 0-35.353-13.855-35.353-30.946v-64.247h-193.652c-19.523 0-35.353-13.855-35.353-30.946v-95.191c0-17.089 15.828-30.946 35.353-30.946h716.955c19.523 0 35.353 13.855 35.353 30.946v95.191c0.002 17.093-15.826 30.946-35.349 30.946zM487.952 864.807h-188.242v33.302h188.242v-33.302zM71.608 594.286l29.314-605.205c0.8-16.565 16.378-29.634 35.319-29.634h560.21c18.941 0 34.519 13.069 35.319 29.636l29.312 605.203h-689.474zM309.479 85.294c0-17.089-15.828-30.946-35.353-30.946-19.523 0-35.353 13.855-35.353 30.946v383.149c0 17.089 15.828 30.946 35.353 30.946 19.523 0 35.353-13.855 35.353-30.946v-383.149zM451.693 85.294c0-17.089-15.828-30.946-35.353-30.946s-35.353 13.855-35.353 30.946v383.149c0 17.089 15.828 30.946 35.353 30.946s35.353-13.855 35.353-30.946v-383.149zM593.908 85.294c0-17.089-15.828-30.946-35.353-30.946s-35.353 13.855-35.353 30.946v383.149c0 17.089 15.828 30.946 35.353 30.946s35.353-13.855 35.353-30.946v-383.149z" />
<glyph unicode="&#xe902;" glyph-name="pm-private" horiz-adv-x="731" d="M691.171 518.659v128.571c0 172.462-145.999 312.77-325.457 312.77s-325.457-140.307-325.457-312.77v-127.358c-20.237-7.42-40.257-24.158-40.257-57.316v-175.097c0-193.795 164.061-351.46 365.717-351.46s365.711 157.666 365.711 351.46v175.097c0 31.462-19.53 48.141-40.257 56.102zM435.225 142.426c1.145-5.829-2.968-10.599-9.141-10.599h-119.363c-6.172 0-10.285 4.77-9.141 10.599l19.117 97.371c-14.592 12.788-23.749 31.206-23.749 51.678 0 38.62 32.578 69.929 72.765 69.929s72.765-31.308 72.765-69.929c0-19.917-8.678-37.874-22.582-50.61l19.328-98.438zM578.949 524.901h-426.469v122.329c0 112.992 95.656 204.922 213.234 204.922 117.576 0 213.234-91.93 213.234-204.922v-122.329z" />
<glyph unicode="&#xe903;" glyph-name="pm-copy" d="M624.81 560.87c13.836-13.866 21.045-33.008 19.799-52.555-1.178-16.357-8.206-31.742-19.797-43.342-26.941-25.353-68.968-25.353-95.911 0-39.979 39.923-104.743 39.923-144.722 0l-217.936-217.731c-40.011-40.005-40.011-104.865 0-144.87s104.881-40.005 144.892 0l128.85 129.001c4.868 4.899 12.212 6.383 18.601 3.753 34.679-14.101 71.784-21.29 109.223-21.158h6.826c9.426 0.054 17.112-7.541 17.166-16.965 0.026-4.583-1.792-8.986-5.048-12.214l-179.195-179.168c-44.731-44.776-105.491-69.84-168.785-69.62-131.956 0.084-238.857 107.107-238.773 239.043 0.040 63.225 25.147 123.856 69.818 168.606l217.082 217.219c44.747 44.896 105.563 70.079 168.955 69.962 45.673 0 90.387-13.086 128.85-37.711 14.522-9.232 27.973-20.048 40.105-32.25zM954.017 890.027c93.311-93.297 93.311-244.562-0.006-337.86l-217.252-217.219c-30.559-30.565-68.838-52.267-110.759-62.795h-1.878l-9.898-2.048-5.462-1.024-11.776-1.706h-5.802c-4.438 0-8.364-0.854-12.118-1.024l-10.24-1.194h-12.97c-8.514 0.34-17.002 1.138-25.429 2.39-6.996 1.194-13.824 2.56-20.649 4.265l-10.070 2.73c-3.584 1.024-7.338 2.218-10.922 3.583s-7.338 2.56-10.922 4.095c-3.584 1.536-7.168 2.901-10.752 4.607-25.399 11.768-48.511 27.943-68.264 47.777-13.836 13.868-21.045 33.010-19.797 52.557 1.098 16.475 8.132 31.994 19.797 43.682 26.941 25.353 68.968 25.353 95.911 0 39.979-39.923 104.743-39.923 144.722 0l55.976 55.628 1.366 1.536 160.081 159.885c40.011 40.005 40.011 104.865 0 144.87s-104.881 40.005-144.892 0l-128.508-128.319c-4.868-4.899-12.212-6.383-18.601-3.753-34.613 14.153-71.658 21.398-109.053 21.33h-6.314c-6.972-0.134-13.324 3.987-16.042 10.408-2.75 6.403-1.332 13.832 3.584 18.771l179.025 178.826c93.311 93.297 244.599 93.297 337.91 0z" />
<glyph unicode="&#xe904;" glyph-name="pm-align-left" horiz-adv-x="1396" d="M49.812 497.887h1195.406c13.49 0 25.157 4.556 35.019 13.652 9.851 9.083 14.777 19.86 14.777 32.3v91.9c0 12.452-4.926 23.212-14.777 32.305-9.859 9.095-21.526 13.639-35.019 13.639h-1195.406c-13.498 0-25.168-4.544-35.030-13.639-9.851-9.090-14.782-19.86-14.782-32.305v-91.9c0-12.44 4.931-23.217 14.785-32.3 9.868-9.095 21.54-13.652 35.027-13.652zM49.834 776.205h896.919c13.493 0 25.187 4.549 35.054 13.639 9.853 9.095 14.792 19.86 14.792 32.305v91.9c0 12.442-4.939 23.207-14.792 32.312-9.864 9.083-21.557 13.639-35.054 13.639h-896.919c-13.504 0-25.179-4.556-35.045-13.639-9.856-9.095-14.789-19.87-14.789-32.312v-91.9c0-12.442 4.933-23.207 14.792-32.305 9.872-9.090 21.549-13.639 35.043-13.639zM1381.555 106.149c-9.872 9.095-21.575 13.646-35.071 13.646h-1296.61c-13.515 0-25.199-4.551-35.073-13.646-9.863-9.090-14.801-19.862-14.801-32.303v-91.894c0-12.442 4.937-23.214 14.803-32.321 9.883-9.077 21.572-13.631 35.073-13.631h1296.61c13.493 0 25.196 4.554 35.071 13.631 9.863 9.105 14.806 19.877 14.806 32.321v91.894c-0.005 12.442-4.945 23.214-14.809 32.303zM49.91 219.569h998.124c13.514 0 25.217 4.554 35.088 13.649 9.879 9.088 14.825 19.86 14.825 32.305v91.887c0 12.435-4.946 23.217-14.825 32.305-9.868 9.095-21.571 13.649-35.088 13.649h-998.124c-13.525 0-25.217-4.554-35.099-13.649-9.871-9.088-14.811-19.87-14.811-32.305v-91.895c0-12.442 4.941-23.225 14.814-32.305 9.887-9.095 21.582-13.642 35.096-13.642z" />
<glyph unicode="&#xe905;" glyph-name="pm-calendar" d="M370.298 396.044c0 12.805-10.626 23.179-23.736 23.179h-82.83c-13.096 0-23.723-10.374-23.723-23.179v-80.957c0-12.822 10.628-23.2 23.723-23.2h82.83c13.111 0 23.736 10.378 23.736 23.2v80.957zM577.302 396.044c0 12.805-10.628 23.179-23.713 23.179h-82.841c-13.096 0-23.723-10.374-23.723-23.179v-80.957c0-12.822 10.628-23.2 23.723-23.2h82.841c13.085 0 23.713 10.378 23.713 23.2v80.957zM784.318 396.044c0 12.805-10.628 23.179-23.723 23.179h-82.83c-13.111 0-23.736-10.374-23.736-23.179v-80.957c0-12.822 10.626-23.2 23.736-23.2h82.83c13.096 0 23.723 10.378 23.723 23.2v80.957zM370.298 193.675c0 12.826-10.626 23.192-23.736 23.192h-82.83c-13.096 0-23.723-10.366-23.723-23.192v-80.942c0-12.814 10.628-23.19 23.723-23.19h82.83c13.111 0 23.736 10.378 23.736 23.19v80.942zM577.302 193.675c0 12.826-10.628 23.192-23.713 23.192h-82.841c-13.096 0-23.723-10.366-23.723-23.192v-80.942c0-12.814 10.628-23.19 23.723-23.19h82.841c13.085 0 23.713 10.378 23.713 23.19v80.942zM784.318 193.675c0 12.826-10.628 23.192-23.713 23.192h-82.841c-13.111 0-23.736-10.366-23.736-23.192v-80.942c0-12.814 10.626-23.19 23.736-23.19h82.841c13.085 0 23.713 10.378 23.713 23.19v80.942zM932.427 846.179v-123.655c0-55.891-46.384-100.93-103.553-100.93h-65.324c-57.173 0-104.172 45.039-104.172 100.93v124.099h-294.432v-124.099c0-55.891-46.997-100.93-104.161-100.93h-65.337c-57.166 0-103.548 45.039-103.548 100.93v123.655c-49.964-1.472-91.020-41.886-91.020-91.559v-724.676c0-50.607 41.963-92.17 93.735-92.17h835.096c51.695 0 93.735 41.649 93.735 92.17v724.676c0 49.673-41.054 90.087-91.018 91.559zM902.086 75.071c0-21.87-18.141-39.614-40.523-39.614h-700.585c-22.382 0-40.523 17.743-40.523 39.614v374.321c0 21.879 18.139 39.622 40.523 39.622h700.583c22.382 0 40.523-17.743 40.523-39.622l0.002-374.321zM195.22 687.886h64.615c19.612 0 35.514 15.521 35.514 34.692v202.716c0 19.173-15.902 34.705-35.514 34.705h-64.615c-19.615 0-35.514-15.532-35.514-34.705v-202.716c0-19.171 15.9-34.692 35.514-34.692zM762.719 687.886h64.615c19.6 0 35.502 15.521 35.502 34.692v202.716c0.002 19.173-15.9 34.705-35.502 34.705h-64.615c-19.61 0-35.512-15.532-35.512-34.705v-202.716c0-19.171 15.902-34.692 35.512-34.692z" />
<glyph unicode="&#xe906;" glyph-name="pm-clip" horiz-adv-x="896" d="M894.718 727.298c-6.356 62.425-35.735 118.491-82.724 157.868l-27.037 22.663c-40.141 33.644-90.698 52.17-142.37 52.17-68.911 0-133.203-31.703-176.393-86.985l-415.703-532.053c-38.084-48.729-55.563-109.912-49.215-172.268 6.348-62.35 35.765-118.411 82.828-157.86l27.037-22.663c40.135-33.644 90.69-52.17 142.349-52.17 7.976 0 16.045 0.441 23.982 1.313 59.839 6.534 113.719 36.649 151.559 84.608 0.127 0.154 0.201 0.244 280.451 358.883 49.912 63.891 40.334 157.931-21.345 209.63l-14.171 11.869c-25.488 21.364-57.597 33.129-90.402 33.129-43.751 0-84.572-20.133-111.998-55.233l-279.925-358.261c-18.29-23.415-14.782-57.879 7.825-76.827 9.355-7.839 21.128-12.157 33.146-12.157 16.011 0 30.965 7.378 41.033 20.259l279.919 358.261c7.322 9.369 18.229 14.742 29.919 14.742 8.884 0 17.226-3.057 24.125-8.839l14.173-11.883c7.963-6.673 12.94-16.176 14.017-26.765 1.075-10.589-1.877-20.961-8.323-29.203l-279.599-357.855c-23.087-29.529-57.454-46.459-94.29-46.462-27.616 0-54.64 9.901-76.093 27.886l-27.037 22.658c-25.16 21.092-40.887 51.065-44.278 84.394-3.394 33.332 5.948 66.044 26.309 92.096l415.706 532.048c23.087 29.545 57.464 46.492 94.317 46.492 27.619 0 54.645-9.901 76.093-27.881l27.034-22.658c51.937-43.531 59.998-122.705 17.972-176.493-8.863-11.345-12.929-25.581-11.452-40.093 1.48-14.509 8.326-27.557 19.272-36.731 9.358-7.841 21.13-12.162 33.149-12.162 16.011 0 30.962 7.384 41.027 20.262 38.028 48.666 55.471 109.849 49.112 172.271z" />
<glyph unicode="&#xe907;" glyph-name="pm-completed" d="M512 960c-282.315 0-512-229.678-512-511.997s229.685-512.003 512-512.003c282.315 0 512 229.684 512 512.003s-229.68 511.997-512 511.997zM805.999 534.483l-321.664-321.662c-13.677-13.677-31.858-21.205-51.198-21.205s-37.521 7.528-51.198 21.205l-163.939 163.938c-13.677 13.677-21.21 31.858-21.21 51.198 0 19.346 7.533 37.526 21.21 51.203 13.672 13.677 31.853 21.21 51.198 21.21 19.34 0 37.527-7.533 51.198-21.215l112.735-112.729 270.46 270.458c13.677 13.677 31.858 21.205 51.198 21.205s37.521-7.528 51.198-21.205c28.241-28.241 28.241-74.171 0.011-102.402z" />
<glyph unicode="&#xe908;" glyph-name="pm-down-arrow" horiz-adv-x="1755" d="M798.053 40.722l-691.884 662.068c-44.035 42.116-44.035 110.399 0 152.494 43.996 42.098 115.353 42.098 159.345 0l612.212-585.828 612.191 585.811c44.014 42.098 115.363 42.098 159.359 0 44.014-42.098 44.014-110.378 0-152.494l-691.895-662.068c-22.009-21.049-50.823-31.562-79.651-31.562-28.843 0-57.678 10.533-79.676 31.579z" />
<glyph unicode="&#xe909;" glyph-name="pm-incomplete" d="M512 960c-282.315 0-512-229.678-512-511.997s229.685-512.003 512-512.003c282.315 0 512 229.684 512 512.003s-229.68 511.997-512 511.997zM805.999 534.483l-321.664-321.662c-13.677-13.677-31.858-21.205-51.198-21.205s-37.521 7.528-51.198 21.205l-163.939 163.938c-13.677 13.677-21.21 31.858-21.21 51.198 0 19.346 7.533 37.526 21.21 51.203 13.672 13.677 31.853 21.21 51.198 21.21 19.34 0 37.527-7.533 51.198-21.215l112.735-112.729 270.46 270.458c13.677 13.677 31.858 21.205 51.198 21.205s37.521-7.528 51.198-21.205c28.241-28.241 28.241-74.171 0.011-102.402z" />
<glyph unicode="&#xe90a;" glyph-name="pm-more-options" horiz-adv-x="256" d="M128 704c-70.576 0-128 57.424-128 128s57.424 128 128 128c70.576 0 128-57.424 128-128s-57.424-128-128-128zM128 192c70.576 0 128-57.424 128-128s-57.424-128-128-128c-70.576 0-128 57.424-128 128s57.424 128 128 128zM128 550.4c70.576 0 128-57.424 128-128s-57.424-128-128-128c-70.576 0-128 57.424-128 128s57.424 128 128 128z" />
<glyph unicode="&#xe90b;" glyph-name="pm-pencil" horiz-adv-x="1103" d="M685.729 789.108l224.328-209.323-567.837-529.859-224.201 209.323 567.709 529.859zM1080.279 839.591l-100.042 93.351c-38.663 36.077-101.443 36.077-140.237 0l-95.83-89.421 224.328-209.325 111.78 104.304c29.987 27.983 29.987 73.109 0 101.090zM0.624-34.972c-4.082-17.144 12.506-32.507 30.881-28.337l249.976 56.556-224.201 209.323-56.657-237.542z" />
<glyph unicode="&#xe90c;" glyph-name="pm-unlock" horiz-adv-x="658" d="M603.429 512c30.286 0 54.857-24.571 54.857-54.857v-329.143c0-30.286-24.571-54.857-54.857-54.857h-548.571c-30.286 0-54.857 24.571-54.857 54.857v329.143c0 30.286 24.571 54.857 54.857 54.857h18.286v182.857c0 141.143 114.857 256 256 256s256-114.857 256-256c0-20-16.571-36.571-36.571-36.571h-36.571c-20 0-36.571 16.571-36.571 36.571 0 80.571-65.714 146.286-146.286 146.286s-146.286-65.714-146.286-146.286v-182.857h420.571z" />
<glyph unicode="&#xe90d;" glyph-name="pm-smile" d="M327.68 468.48c45.33 0 81.92 36.59 81.92 81.92s-36.59 81.92-81.92 81.92c-45.33 0-81.92-36.59-81.92-81.92s36.59-81.92 81.92-81.92zM696.32 468.48c45.33 0 81.92 36.59 81.92 81.92s-36.59 81.92-81.92 81.92c-45.33 0-81.92-36.59-81.92-81.92s36.59-81.92 81.92-81.92zM511.998 251.977c-76.701 0-143 37.917-179.139 93.623h-87.099c41.601-95.73 145.080-163.84 266.24-163.84s224.639 68.11 266.24 163.84h-87.099c-36.143-55.706-102.443-93.623-179.144-93.623zM511.488 960c-282.624 0-511.488-229.376-511.488-512s228.864-512 511.488-512c283.135 0 512.512 229.376 512.512 512s-229.377 512-512.512 512zM511.999 38.399c-226.303 0-409.6 183.295-409.6 409.601s183.297 409.599 409.6 409.599c226.303 0 409.6-183.295 409.6-409.599s-183.295-409.601-409.6-409.601z" />
<glyph unicode="&#xe90e;" glyph-name="pm-sorting" horiz-adv-x="1126" d="M1126.399 799.12c-0.847-1.55-1.869-3.018-2.515-4.663-13.96-35.421-51.008-43.451-76.141-16.309-3.118 3.366-5.228 7.837-7.807 11.796-1.23-0.932-2.46-1.864-3.69-2.796 0-13.69-0.004-27.378 0-41.068 0.030-72.634 0.114-145.267 0.019-217.899-0.011-8.416 0.013-17.102-1.77-25.193-5.032-22.852-25.139-37.476-48.026-36.007-19.883 1.276-38.843 19.396-39.864 42.051-1.6 35.649-1.039 71.422-1.113 107.143-0.112 54.184 0.032 108.37 0.019 162.557-0.002 2.902-0.43 5.802-0.663 8.705-1.065 0.854-2.127 1.71-3.19 2.565-3.359-4.877-6.13-10.446-10.173-14.514-18.507-18.616-45.41-17.951-62.86 1.089-17.402 18.99-18.499 49.014-1.082 68.555 30.461 34.182 61.381 67.9 92.756 101.080 17.114 18.101 44.125 17.984 61.345-0.235 31.369-33.19 62.189-67.009 92.678-101.158 5.417-6.068 8.12-15.012 12.076-22.628v-23.071zM34.133 132.376c6.422 17.462 16.011 31.842 33.784 36.323 16.056 4.051 30.986 0.625 42.852-12.638 3.624-4.049 5.902-9.528 8.795-14.355 1.556 1.174 3.107 2.346 4.661 3.516v14.65c0 84.164-0.080 168.331 0.032 252.498 0.049 34.791 22.933 57.181 52.994 52.306 19.65-3.186 36.024-20.766 36.881-42.644 1.188-30.308 0.775-60.695 0.823-91.049 0.091-57.647 0.023-115.298 0.021-172.948-0.002-4.148-0.002-8.296-0.002-16.071 5.616 5.994 9.126 9.814 12.713 13.552 18.556 19.343 45.765 19.656 63.739 0.761 17.946-18.865 19.030-49.249 1.137-69.316-30.228-33.896-60.907-67.332-92.015-100.27-18.154-19.223-44.584-18.678-62.791 0.78-30.461 32.56-60.636 65.449-90.4 98.764-5.673 6.349-8.88 15.314-13.226 23.071v23.071zM580.73 246.876c-75.355-0.003-150.709-0.056-226.062 0.028-27.579 0.028-47.38 22.788-47.467 54.166-0.087 31.567 19.555 55.314 46.787 55.348 150.353 0.187 300.707 0.192 451.060 0.077 25.058-0.020 44.739-19.526 47.808-46.303 3.263-28.481-10.442-53.961-33.476-61.455-4.701-1.53-9.802-1.778-14.72-1.786-74.643-0.105-149.286-0.072-223.929-0.074zM580.583 411.606c-74.945 0-149.888-0.028-224.832 0.020-18.467 0.013-33.311 8.712-42.352 28.363-8.521 18.52-8.399 37.757 1.243 55.71 9.292 17.306 22.811 25.469 40.391 25.444 150.242-0.225 300.485-0.135 450.727-0.1 26.83 0.005 47.265-22.565 47.569-52.744 0.32-32.153-19.26-56.384-46.851-56.645-45.106-0.427-90.216-0.117-135.324-0.117l-90.572 0.069zM580.155 576.288c-74.598 0-149.198-0.115-223.8 0.056-30.080 0.069-50.091 23.753-49.121 57.391 0.727 25.232 16.883 47.927 37.968 50.472 16.19 1.956 32.615 1.446 48.935 1.451 136.052 0.038 272.107-0.031 408.159-0.13 23.865-0.015 40.216-11.948 47.686-34.375 11.828-35.52-8.971-73.371-41.77-74.595-26.266-0.979-52.57-0.37-78.86-0.385-49.733-0.036-99.465-0.010-149.198-0.010v0.125z" />
<glyph unicode="&#xe90f;" glyph-name="pm-star" horiz-adv-x="1170" d="M641.643 927.854l131.993-244.706c9.179-17.020 26.926-28.813 47.456-31.538l295.16-39.243c51.704-6.879 72.332-64.996 34.933-98.343l-213.577-190.476c-14.842-13.245-21.629-32.342-18.113-51.036l50.41-268.962c8.837-47.105-45.21-83.021-91.446-60.797l-263.987 126.977c-18.357 8.822-40.304 8.822-58.661 0l-263.987-126.977c-46.236-22.246-100.283 13.692-91.446 60.797l50.41 268.962c3.515 18.695-3.271 37.791-18.113 51.036l-213.577 190.476c-37.399 33.369-16.771 91.486 34.933 98.343l295.16 39.243c20.53 2.725 38.277 14.518 47.456 31.538l131.993 244.706c23.093 42.861 89.883 42.861 113.001 0z" />
<glyph unicode="&#xe910;" glyph-name="pm-tag" d="M997.951 416.469l-482.765 482.089c-17.11 17.117-40.061 31.628-68.868 43.552-28.816 11.926-55.147 17.89-79.006 17.89h-280.881c-23.41 0-43.665-8.559-60.771-25.654-17.105-17.105-25.654-37.361-25.654-60.771v-280.881c0-23.857 5.957-50.181 17.888-78.997s26.444-51.536 43.554-68.197l482.758-483.439c16.656-16.656 36.897-24.983 60.771-24.983 23.389 0 43.888 8.327 61.44 24.983l331.525 332.197c16.656 16.663 24.976 36.902 24.976 60.761 0 23.408-8.32 43.89-24.966 61.449zM277.171 682.832c-16.89-16.881-37.252-25.326-61.111-25.326-23.85 0-44.221 8.445-61.102 25.326-16.881 16.883-25.319 37.245-25.319 61.102 0 23.859 8.438 44.228 25.319 61.102 16.883 16.883 37.252 25.328 61.102 25.328 23.859 0 44.228-8.445 61.111-25.328 16.874-16.874 25.319-37.245 25.319-61.102s-8.436-44.219-25.319-61.102z" />
<glyph unicode="&#xe911;" glyph-name="pm-watch" d="M955.351 705.005c-45.786 78.439-107.892 140.544-186.333 186.328-78.456 45.781-164.101 68.667-257.002 68.667-92.891 0-178.562-22.886-257.004-68.667-78.446-45.776-140.552-107.882-186.338-186.328-45.788-78.451-68.674-164.122-68.674-257.005 0-92.888 22.893-178.545 68.667-257.001 45.784-78.439 107.889-140.544 186.336-186.333 78.451-45.779 164.115-68.667 257.004-68.667s178.562 22.888 257.009 68.667c78.442 45.772 140.545 107.893 186.326 186.333 45.774 78.448 68.658 164.117 68.658 257.001 0.002 92.893-22.884 178.566-68.649 257.005zM826.010 266.004c-32.443-55.553-76.441-99.567-131.994-132.010s-116.218-48.648-182.007-48.648c-65.772 0-126.441 16.205-182.002 48.648-55.553 32.446-99.551 76.457-131.994 132.010-32.45 55.553-48.67 116.22-48.67 181.996 0 65.781 16.226 126.448 48.67 182.001 32.436 55.553 76.445 99.56 131.994 132.001 55.553 32.446 116.221 48.662 182.002 48.662 65.786 0 126.453-16.217 182.007-48.662 55.553-32.443 99.553-76.447 131.994-132.001 32.446-55.553 48.658-116.22 48.658-182.001 0-65.776-16.212-126.443-48.658-181.996zM566.852 667.429h-36.574c-5.342 0-9.713-1.719-13.149-5.144-3.414-3.429-5.134-7.806-5.134-13.14v-201.154h-127.997c-5.338 0-9.713-1.711-13.143-5.132-3.426-3.427-5.14-7.808-5.14-13.152v-36.57c0-5.336 1.713-9.719 5.14-13.144 3.432-3.425 7.816-5.136 13.143-5.136h182.864c5.328 0 9.713 1.711 13.131 5.136 3.424 3.425 5.15 7.808 5.15 13.144v256.008c0 5.33-1.725 9.705-5.15 13.14-3.422 3.425-7.806 5.144-13.141 5.144z" />
<glyph unicode="&#xe912;" glyph-name="pm-rigth-arrow" horiz-adv-x="1280" d="M66.493 376.554h986.504l-296.48-318.594c-25.974-27.893-25.974-73.14 0-101.028 25.974-27.909 68.083-27.909 94.018 0l409.985 440.546c25.973 27.892 25.973 73.144 0 101.028l-409.985 440.567c-12.983 13.959-29.998 20.928-47.009 20.928s-34.026-6.969-47.009-20.928c-25.974-27.892-25.974-73.14 0-101.024l296.48-318.611h-986.504c-36.718 0-66.493-31.99-66.493-71.444s29.771-71.44 66.493-71.44z" />
<glyph unicode="&#xe913;" glyph-name="pm-play" horiz-adv-x="768" d="M27.592 952.895c8.514 4.733 18.042 7.105 27.584 7.105 9.517 0 19.042-2.372 27.593-7.105l657.636-459.006c17.041-9.457 27.595-26.967 27.595-45.898 0-18.928-10.525-36.435-27.595-45.881l-657.636-459.025c-17.067-9.446-38.107-9.446-55.162 0-17.070 9.479-27.607 26.994-27.607 45.912v918.007c0 18.92 10.52 36.427 27.592 45.892z" />
<glyph unicode="&#xe914;" glyph-name="pm-stop" d="M128 832h768v-768h-768z" />
<glyph unicode="&#xe915;" glyph-name="pm-up-arrow" horiz-adv-x="1707" d="M937.822 923.158l733.817-772.412c46.704-49.135 46.704-128.798 0-177.909-46.662-49.115-122.344-49.115-169.002 0l-649.316 683.466-649.293-683.446c-46.681-49.115-122.355-49.115-169.017 0-46.681 49.115-46.681 128.774 0 177.909l733.828 772.413c23.342 24.557 53.903 36.822 84.478 36.822 30.591 0 61.174-12.289 84.505-36.842z" />
<glyph unicode="&#xe916;" glyph-name="pm-single-user" horiz-adv-x="838" d="M418.912 494.545c128.524 0 232.724 104.195 232.724 232.726 0 128.534-34.21 232.729-232.724 232.729s-232.731-104.195-232.731-232.729c0-128.531 104.199-232.726 232.731-232.726zM837.349 103.32c-4.108 266.99-37.957 343.068-296.983 391.225 0 0-36.462-47.862-121.447-47.862s-121.454 47.862-121.454 47.862c-256.2-47.632-292.108-122.581-296.829-382.551-0.387-21.228-0.567-22.344-0.636-19.879 0.016-4.617 0.035-13.158 0.035-28.050 0 0 61.668-128.064 418.884-128.064 357.21 0 418.884 128.064 418.884 128.064 0 9.568 0.006 16.222 0.016 20.748-0.069-1.524-0.208 1.43-0.469 18.508z" />
<glyph unicode="&#xe917;" glyph-name="pm-cross" d="M633.701 447.998l365.094 365.094c33.607 33.607 33.607 88.095 0 121.698-33.607 33.607-88.090 33.607-121.698 0l-365.098-365.099-365.098 365.104c-33.607 33.607-88.090 33.607-121.698 0-33.603-33.607-33.603-88.095 0-121.698l365.098-365.094-365.098-365.099c-33.603-33.607-33.603-88.095 0-121.698 33.607-33.607 88.090-33.607 121.698 0l365.098 365.099 365.098-365.099c33.602-33.607 88.090-33.607 121.698 0s33.607 88.091 0 121.698l-365.094 365.094z" />
<glyph unicode="&#xe918;" glyph-name="pm-copy-files" d="M946.987 629.060c-0.11 1.563-0.404 3.070-0.919 4.559-0.221 0.625-0.368 1.232-0.643 1.838-0.901 1.949-2.004 3.787-3.567 5.35v0.018c0 0-0.018 0.018-0.018 0.037l-313.806 313.75c-1.581 1.599-3.456 2.721-5.423 3.622-0.496 0.239-1.048 0.368-1.581 0.552-1.581 0.533-3.199 0.882-4.872 0.974-0.386 0.037-0.735 0.239-1.14 0.239h-207.304c-67.618 0-122.606-55.007-122.606-122.625v-30.776h-85.727c-67.618 0-122.625-55.007-122.625-122.625v-625.368c0-67.618 55.007-122.606 122.625-122.606h416.906c67.6 0 122.606 54.988 122.606 122.606v30.794h85.745c67.618 0 122.606 54.988 122.606 122.606v415.803c0 0.441-0.221 0.809-0.257 1.25zM633.421 897.235l251.041-251.041h-165.185c-47.34 0-85.856 38.516-85.856 85.856v165.185zM702.124 58.625c0-47.322-38.516-85.837-85.837-85.837h-416.906c-47.34 0-85.856 38.516-85.856 85.837v625.35c0 47.34 38.516 85.856 85.856 85.856h188.938v-191.181c0-67.618 54.988-122.606 122.588-122.606h191.199v-348.24l0.018-49.179zM676.128 492.812h-165.203c-47.322 0-85.819 38.497-85.819 85.837v165.185l251.022-251.022zM824.638 126.17h-85.745v348.258c0 0.423-0.221 0.809-0.257 1.232-0.11 1.563-0.386 3.070-0.901 4.578-0.221 0.607-0.386 1.213-0.662 1.838-0.882 1.93-2.004 3.769-3.567 5.332v0 0c0 0.018-0.018 0.037-0.018 0.037l-313.787 313.769c-1.599 1.581-3.456 2.703-5.423 3.603-0.533 0.239-1.066 0.386-1.618 0.57-1.581 0.552-3.162 0.882-4.835 0.974-0.386 0.037-0.735 0.239-1.14 0.239h-84.826v30.776c0 47.34 38.516 85.856 85.837 85.856h188.938v-191.199c0-67.618 55.007-122.625 122.625-122.625h191.181v-397.4c0.037-47.322-38.479-85.837-85.801-85.837z" />
<glyph unicode="&#xe919;" glyph-name="pm-check-circle" d="M938.667 507.734c-25.6 0-42.667-17.067-42.667-42.667v-38.4c0-213.333-170.667-384-384-384 0 0 0 0 0 0-213.333 0-384 170.667-384 384s170.667 384 384 384c0 0 0 0 0 0 55.467 0 106.667-12.8 157.867-34.133 21.333-8.533 46.933 0 55.467 21.333s0 46.933-21.333 55.467c-59.733 25.6-123.733 42.667-192 42.667 0 0 0 0 0 0-260.267 0-469.333-209.067-469.333-469.333s209.067-469.333 469.333-469.333c0 0 0 0 0 0 260.267 0 469.333 209.067 469.333 469.333v38.4c0 25.6-17.067 42.667-42.667 42.667zM413.867 499.2c-17.067 17.067-42.667 17.067-59.733 0s-17.067-42.667 0-59.733l128-128c8.533-8.533 17.067-12.8 29.867-12.8s21.333 4.267 29.867 12.8l426.667 426.667c17.067 17.067 17.067 42.667 0 59.733s-42.667 17.067-59.733 0l-396.8-396.8-98.133 98.133z" />
<glyph unicode="&#xe91a;" glyph-name="pm-undo-arrow" d="M983.345 646.658c-27.105 63.116-63.553 117.562-109.324 163.334-45.781 45.774-100.225 82.214-163.343 109.331-63.112 27.117-129.324 40.665-198.661 40.665-65.33 0-128.549-12.322-189.668-36.994-61.106-24.667-115.44-59.443-162.998-104.337l-86.677 86.011c-13.335 13.779-28.663 16.887-46.003 9.338-17.781-7.566-26.671-20.681-26.671-39.345v-298.668c0-11.554 4.224-21.555 12.67-29.998 8.451-8.446 18.452-12.67 30.005-12.67h298.668c18.671 0 31.78 8.89 39.336 26.669 7.552 17.333 4.444 32.663-9.338 46.003l-91.335 91.996c31.121 29.335 66.672 51.889 106.672 67.67 40.002 15.778 81.776 23.673 125.333 23.673 46.217 0 90.336-9.009 132.336-27 42.007-18.003 78.327-42.337 108.997-73.005 30.668-30.661 55.002-66.992 73.005-108.997 17.987-42 26.993-86.105 26.993-132.336 0-46.229-9.004-90.333-26.993-132.332-18.003-42-42.337-78.327-73.005-108.997-30.671-30.668-67.004-55.009-108.997-73.005-42-17.996-86.119-26.995-132.336-26.995-52.891 0-102.891 11.556-150.005 34.659-47.107 23.103-86.885 55.768-119.33 98.009-3.108 4.441-8.222 7.113-15.334 8.007-6.669 0-12.226-1.996-16.67-5.992l-91.333-92.005c-3.552-3.573-5.441-8.121-5.665-13.667-0.219-5.569 1.231-10.564 4.339-15.007 48.45-58.668 107.111-104.113 175.999-136.324 68.888-32.219 141.562-48.338 218.004-48.338 69.337 0 135.549 13.562 198.661 40.667 63.119 27.103 117.546 63.56 163.334 109.329 45.778 45.788 82.219 100.222 109.331 163.334s40.655 129.343 40.655 198.665c0.002 69.346-13.55 135.542-40.653 198.656z" />
<glyph unicode="&#xe91b;" glyph-name="pm-archive" d="M1024-48h-1024v553.68l133.376 200.064 53.248-35.488-122.624-183.936v-470.32h896v470.32l-122.624 183.936 53.248 35.488 133.376-200.064zM32 528h944v-64h-944v64zM896 560h-64v224h-640v-224h-64v288h768zM352 368h320v-64h-320v64zM256 720h256v-64h-256v64zM256 624h368v-64h-368v64zM848 848h-64v32h-544v-32h-64v96h672z" />
<glyph unicode="&#xe91c;" glyph-name="pm-capability" horiz-adv-x="1134" d="M681.307 339.888c-69.355-93.833-77.514-220.303-16.319-322.295l-4.080-4.080c-53.036-16.319-106.072-24.478-159.108-28.558-57.116-4.080-118.311-4.080-175.426 0-110.151 8.159-220.303 36.717-318.215 89.753-4.080 0-4.080 4.080-4.080 4.080 0 16.319-4.080 28.558-4.080 40.797 0 32.637 0 65.275 0 101.992 0 24.478 12.239 48.956 28.558 69.355 12.239 16.319 28.558 24.478 48.956 28.558 65.275 20.398 122.39 44.876 179.506 81.594 4.080 0 8.159 4.080 8.159 4.080l89.753-277.418 4.080 4.080 32.637 89.753c0 4.080 0 4.080 0 8.159-8.159 12.239-16.319 24.478-24.478 40.797-4.080 12.239-8.159 28.558-4.080 44.876 0 4.080 4.080 8.159 4.080 12.239 8.159 12.239 20.398 16.319 36.717 16.319 16.319 4.080 36.717 0 53.036-8.159 8.159-4.080 16.319-16.319 16.319-28.558s0-24.478-8.159-36.717c-8.159-12.239-12.239-24.478-20.398-36.717-4.080-4.080-4.080-12.239 0-16.319 8.159-28.558 20.398-57.116 28.558-81.594l4.080-4.080h4.080l85.673 277.418c32.637-28.558 73.434-48.956 114.231-69.355zM624.191 768.255c0-28.558-4.080-53.036-8.159-81.594 0-4.080 0-4.080 4.080-8.159 8.159-8.159 12.239-16.319 8.159-24.478 0-32.637-8.159-65.275-24.478-93.833-4.080-4.080-4.080-8.159-8.159-12.239s-8.159-4.080-12.239-4.080c-4.080 0-8.159-4.080-8.159-4.080 0-12.239-4.080-20.398-4.080-28.558-8.159-32.637-24.478-65.275-48.956-89.753-40.797-36.717-97.912-53.036-155.028-36.717-40.797 12.239-77.514 36.717-97.912 73.434-12.239 20.398-24.478 44.876-28.558 73.434 0 8.159-8.159 16.319-12.239 24.478-8.159 8.159-12.239 12.239-16.319 20.398-12.239 24.478-20.398 48.956-20.398 77.514 0 8.159 0 12.239 0 20.398s8.159 16.319 16.319 16.319c8.159 0 8.159 4.080 4.080 8.159-8.159 32.637-8.159 61.195 0 93.833 8.159 44.876 32.637 81.594 69.355 110.151 16.319 16.319 36.717 28.558 61.195 40.797 28.558 12.239 65.275 20.398 101.992 16.319s73.434-20.398 101.992-48.956c4.080-4.080 8.159-8.159 8.159-8.159 4.080-8.159 12.239-12.239 24.478-16.319 16.319-8.159 32.637-24.478 36.717-40.797 8.159-24.478 12.239-53.036 8.159-77.514zM905.689 221.578c-28.558 0-53.036-24.478-53.036-53.036 0 0 0 0 0 0 0-28.558 24.478-53.036 53.036-53.036s53.036 24.478 53.036 53.036-24.478 53.036-53.036 53.036zM1134.151 209.339c-12.239 53.036-40.797 101.992-85.673 138.709-36.717 28.558-81.594 44.876-126.47 48.956-20.398 0-36.717 0-57.116 0-89.753-16.319-163.187-81.594-183.586-167.267-4.080-20.398-8.159-44.876-4.080-69.355 0-28.558 4.080-61.195 20.398-85.673 36.717-81.594 122.39-134.629 212.143-134.629 28.558 0 57.116 4.080 81.594 12.239 61.195 24.478 106.072 69.355 130.55 130.55 8.159 16.319 8.159 32.637 16.319 53.036v65.275c-4.080 4.080-4.080 4.080-4.080 8.159zM1056.637 152.223c0-8.159-4.080-12.239-12.239-12.239h-20.398c-4.080-12.239-8.159-20.398-12.239-28.558l12.239-16.319c4.080-4.080 4.080-12.239 0-20.398l-24.478-24.478c-4.080-4.080-12.239-4.080-20.398 0l-12.239 12.239c-8.159-4.080-20.398-8.159-28.558-12.239l-4.080-20.398c0-8.159-8.159-12.239-12.239-12.239h-32.637c-8.159 0-12.239 4.080-12.239 12.239l-4.080 20.398c-8.159 4.080-20.398 8.159-28.558 12.239l-16.319-12.239c-4.080-4.080-12.239-4.080-20.398 0l-24.478 24.478c-4.080 4.080-4.080 12.239 0 20.398l12.239 16.319c-4.080 8.159-8.159 16.319-12.239 28.558l-20.398 4.080c-8.159 0-12.239 8.159-12.239 12.239v28.558c0 8.159 4.080 12.239 12.239 12.239l20.398 4.080c4.080 8.159 8.159 20.398 12.239 28.558l-12.239 16.319c-4.080 4.080-4.080 12.239 0 20.398l24.478 24.478c4.080 4.080 12.239 4.080 20.398 0l16.319-12.239c8.159 4.080 20.398 12.239 32.637 12.239v20.398c0 8.159 8.159 12.239 12.239 12.239h32.637c8.159 0 12.239-4.080 12.239-12.239v-20.398c12.239-4.080 20.398-8.159 28.558-12.239l16.319 12.239c4.080 4.080 12.239 4.080 20.398 0l24.478-24.478c4.080-4.080 4.080-12.239 0-20.398l-12.239-16.319c4.080-8.159 8.159-20.398 12.239-28.558l20.398-4.080c8.159 0 12.239-8.159 12.239-12.239v-32.637z" />
<glyph unicode="&#xe91d;" glyph-name="pm-overview" horiz-adv-x="1195" d="M936.771 69.383h-678.85c-29.994 0-54.294-25.101-54.294-56.084s24.3-56.11 54.294-56.11h678.799c30.019 0 54.319 25.127 54.319 56.11s-24.325 56.084-54.268 56.084zM190.079 490.115v-140.235c0-23.237 18.25-42.089 40.72-42.089 22.495 0 40.746 18.852 40.746 42.089v140.235c0 23.237-18.25 42.063-40.746 42.063-22.495-0.026-40.72-18.852-40.72-42.063zM325.814 546.173v-196.319c0-23.237 18.25-42.089 40.746-42.089 22.47 0 40.72 18.852 40.72 42.089v196.319c0 23.237-18.25 42.089-40.72 42.089-22.495 0-40.746-18.852-40.746-42.089zM461.573 602.283v-252.403c0-23.237 18.25-42.089 40.746-42.089 22.47 0 40.72 18.852 40.72 42.089v252.403c0 23.237-18.25 42.089-40.72 42.089-22.495 0-40.746-18.852-40.746-42.089zM1140.347 938.837h-1086.028c-29.994 0-54.319-25.127-54.319-56.11v-701.177c0-30.983 24.325-56.11 54.319-56.11h1036.386c-1.576 1.444-3.381 2.626-4.855 4.122l-75.162 77.693c-43.338-25.285-92.421-38.807-142.725-38.807-68.579 0-133.498 24.418-185.707 69.133h-573.669v589.089h977.466v-158.116c47.177-55.007 73.281-124.849 73.281-199.050 0-51.961-13.065-102.636-37.518-147.351l72.824-75.277v635.878c0.025 30.956-24.3 56.084-54.294 56.084zM1077.005 289.044c-5.414 5.619-12.684 7.903-19.75 7.115l-11.413 11.789c38.128 44.741 59.174 101.376 59.174 161.503 0 65.378-24.63 126.871-69.367 173.109-44.813 46.343-104.317 71.759-167.685 71.759-63.266 0-122.771-25.442-167.558-71.759-44.838-46.238-69.494-107.73-69.494-173.109s24.707-126.897 69.494-173.135c44.787-46.29 104.292-71.706 167.558-71.706 58.284 0 113.087 21.714 156.349 61.151l11.464-11.763c-0.763-7.352 1.423-14.782 6.888-20.454l81.669-84.362c4.753-4.91 10.955-7.299 17.208-7.299 6.177 0 12.43 2.416 17.208 7.299 9.456 9.82 9.456 25.705 0 35.472l-81.746 84.388zM1001.258 331.894c-35.586-36.785-82.94-57.108-133.294-57.108-50.278 0-97.607 20.27-133.193 57.055-35.56 36.733-55.209 85.648-55.209 137.636 0 51.961 19.598 100.851 55.209 137.61 35.586 36.785 82.966 57.055 133.193 57.055 50.354 0 97.708-20.244 133.294-57.055 35.535-36.759 55.158-85.648 55.158-137.61 0-51.988-19.623-100.825-55.158-137.584z" />
<glyph unicode="&#xe91e;" glyph-name="pm-file" horiz-adv-x="1331" d="M358.834 460.654c48.595 22.965 95.078 34.453 139.424 34.453h588.871v116.078c0 44.494-15.575 82.72-46.728 114.642-31.148 31.919-68.409 47.876-111.826 47.876h-385.024v23.214c0 44.494-15.568 82.703-46.709 114.614-31.143 31.919-68.419 47.887-111.828 47.887h-226.478c-43.409 0-80.685-15.965-111.828-47.887-31.143-31.914-46.709-70.122-46.709-114.617v-696.432c0-1.941 0.121-4.968 0.357-9.086 0.233-4.104 0.357-7.132 0.357-9.061l3.535 4.33 238.515 287.299c28.781 34.826 67.472 63.729 116.070 86.689zM1311.115 392.826c-12.496 6.296-26.765 9.452-42.817 9.452h-770.041c-31.141 0-64.996-8.591-101.558-25.765-36.565-17.192-64.996-38.079-85.279-62.764l-237.806-287.276c-14.631-16.928-21.946-32.893-21.946-47.894 0-14.504 6.254-24.906 18.756-31.182 12.501-6.296 26.773-9.442 42.819-9.442h770.063c31.136 0 64.973 8.591 101.546 25.755 36.565 17.167 64.983 38.086 85.274 62.764l237.809 287.276c14.623 16.93 21.929 32.877 21.929 47.894 0.010 14.501-6.235 24.894-18.748 31.182z" />
<glyph unicode="&#xe91f;" glyph-name="pm-mileston" horiz-adv-x="951" d="M86.882 838.416c-0.049-31.281 8.114-43.776 28.978-47.54 9.087-1.639 18.891-1.309 28.093 0.008 15.827 2.264 25.545 12.417 27.56 27.83 2.253 17.249 4.156 35.928-12.432 47.719-16.655 11.841-36.048 10.722-54.106 2.968-15.916-6.835-17.924-21.994-18.092-30.984zM514.092 194.303c0.353-0.771 0.705-1.537 1.056-2.306h330.021c-1.356 3.829-2.416 6.923-3.544 9.993-20.688 56.363-41.258 112.77-62.212 169.037-3.204 8.604-3.332 16.222-0.049 24.892 14.566 38.466 28.575 77.142 42.742 115.758 7.723 21.045 15.356 42.123 23.154 63.534h-239.613c0-3.769 0-7.029 0-10.285-0.006-87.337-0.111-174.673 0.051-262.008 0.045-23.501-10.266-41.35-28.239-55.935-21.328-17.313-42.264-35.099-63.367-52.68zM561.6 659.532h-386.973v-382.111c3.19 0 5.826 0.002 8.462 0 118.482-0.062 236.967-0.142 355.449-0.162 17.612-0.004 23.033 5.326 23.041 22.576 0.041 81.683 0.018 163.364 0.018 245.046 0.002 37.959 0.002 75.917 0.002 114.651zM145.904 960c22.913-6.092 44.728-14.487 62.905-30.146 32.010-27.578 52.278-60.882 50.406-104.32-1.082-25.13-11.488-46.968-26.482-66.872-2.592-3.44-5.376-6.743-9.583-11.999 7.757 0 13.666-0.002 19.575 0 103.667 0.030 207.348-0.869 310.999 0.496 49.849 0.656 87.218-41.048 93.462-72.923 0.758-3.869 1.262-7.786 2.041-12.663 7.307 0 14.655 0.002 22.001 0 76.993-0.020 153.988-0.036 230.981-0.064 38.091-0.014 57.685-27.908 44.592-63.452-24.895-67.583-49.656-135.214-74.835-202.693-3.125-8.378-2.9-15.615 0.184-23.871 24.727-66.226 49.326-132.506 73.345-198.984 3.411-9.439 5.388-20.171 4.734-30.090-1.425-21.574-21.071-36.715-45.38-36.739-78.347-0.082-156.689-0.072-235.034-0.074-61.797-0.002-123.646 1.561-185.374-0.46-45.682-1.495-93.125 39.639-95.979 85.796h-215.13v-254.943h-87.135c0 10.151-0.002 20.325 0 30.498 0.028 84.379 0.156 168.758 0.067 253.137-0.166 158.081-0.697 316.163-0.259 474.242 0.038 13.482-2.756 19.974-15.265 26.908-36.634 20.305-60.625 51.187-69.138 92.661-0.182 0.887-1.054 1.637-1.603 2.45v32.023c0.614 1.133 1.548 2.204 1.793 3.41 6.86 33.714 25.44 60.022 52.205 81.299 17.581 13.978 38.079 21.59 59.482 27.372h32.423z" />
<glyph unicode="&#xe920;" glyph-name="pm-discussion" d="M336.529 191.494c24.778 25.271 40.132 60.189 40.132 98.704 0 76.93-61.241 139.516-136.516 139.516s-136.518-62.586-136.518-139.516c0-38.515 15.352-73.433 40.132-98.704-84.562-38.021-143.758-124.451-143.758-224.758 0-16.974 13.466-30.736 30.075-30.736h420.133c16.609 0 30.075 13.762 30.075 30.736 0 100.306-59.196 186.737-143.754 224.758zM880.243 191.495c24.777 25.271 40.131 60.187 40.131 98.704 0 76.93-61.24 139.516-136.516 139.516s-136.516-62.586-136.516-139.516c0-38.515 15.352-73.433 40.131-98.704-84.558-38.021-143.757-124.451-143.757-224.759 0-16.974 13.466-30.736 30.075-30.736h420.133c16.609 0 30.075 13.762 30.075 30.736 0 100.31-59.195 186.738-143.757 224.759zM787.7 795.429h-60.805v-102.077c0-73.695-60.152-133.647-134.093-133.647h-94.394c13.095-19.836 35.618-32.963 61.172-32.963h135.475l72.813-62.279c5.63-4.818 12.694-7.32 19.837-7.32 4.309 0 8.646 0.911 12.711 2.773 10.809 4.951 17.736 15.724 17.736 27.579v45.865c25.197 11.538 42.734 36.929 42.734 66.324v122.801c0.002 40.219-32.83 72.944-73.185 72.944zM597.346 960h-360.995c-40.382 0-73.236-33.191-73.236-73.99v-193.26c0-36.535 26.343-66.969 60.85-72.931v-131.887c0-13.347 8.51-25.174 21.078-29.287 3.094-1.012 6.259-1.501 9.391-1.501 9.587 0 18.843 4.582 24.684 12.73l106.739 148.887h211.491c40.382 0 73.236 33.191 73.236 73.988v193.262c-0.002 40.799-32.856 73.99-73.238 73.99z" />
<glyph unicode="&#xe921;" glyph-name="pm-task-list" d="M895.662 831.291h-766.926v-575.682h191.434v-190.948h384.104v191.392h191.388v575.238zM0-12.033v920c3.144 7.226 5.706 14.778 9.544 21.616 9.334 16.624 25.058 24.782 42.456 30.384h920c7.23-3.136 14.796-5.676 21.62-9.528 16.586-9.366 24.832-25.034 30.38-42.472v-920c-0.916-2.446-1.92-4.862-2.734-7.34-8.702-26.524-32.596-44.574-59.962-44.58-299.532-0.062-599.064-0.072-898.596 0.030-21.856 0.006-39.296 9.704-51.398 27.714-4.902 7.296-7.606 16.072-11.31 24.176zM655.28 705.869c28.554-30.876 56.257-60.827 84.691-91.572-91.438-98.908-182.743-197.673-274.661-297.099-58.202 62.515-115.834 124.419-173.806 186.686 27.353 29.63 54.307 58.824 81.802 88.608 29.7-32.071 58.762-63.45 88.675-95.75 64.432 69.708 128.406 138.921 193.299 209.128z" />
<glyph unicode="&#xe922;" glyph-name="pm-task-filter" d="M1019.626 931.633c-8.244 18.904-22.511 28.357-42.87 28.367h-929.537c-20.331 0-34.618-9.463-42.85-28.367-8.226-19.872-4.84-36.852 10.172-50.908l358.031-358.54v-353.451c0-12.622 4.601-23.517 13.797-32.743l185.9-186.164c8.722-9.206 19.611-13.827 32.688-13.827 5.805 0 11.853 1.22 18.149 3.643 18.889 8.248 28.336 22.546 28.336 42.909v539.631l358.018 358.54c15.017 14.056 18.395 31.031 10.167 50.91z" />
<glyph unicode="&#xe923;" glyph-name="pm-drag-drop" horiz-adv-x="512" d="M76.745 685.958c-21.322 0-39.439-7.445-54.365-22.342-14.918-14.892-22.38-32.977-22.38-54.261 0-21.274 7.462-39.371 22.386-54.266 14.924-14.892 33.046-22.338 54.365-22.338 21.315 0 39.434 7.446 54.359 22.338 14.92 14.893 22.382 32.99 22.382 54.266 0 21.284-7.462 39.369-22.386 54.263-14.921 14.892-33.041 22.341-54.361 22.341zM76.749 958.858c-21.322 0-39.439-7.449-54.365-22.342-14.918-14.898-22.38-32.983-22.38-54.263 0-21.283 7.458-39.369 22.38-54.267 14.924-14.893 33.046-22.339 54.365-22.339 21.315 0 39.434 7.447 54.359 22.339 14.92 14.898 22.382 32.986 22.382 54.267s-7.462 39.365-22.382 54.263c-14.918 14.893-33.037 22.342-54.359 22.342zM76.749 413.062c-21.322 0-39.445-7.442-54.365-22.334-14.918-14.902-22.38-32.99-22.38-54.263 0-21.291 7.458-39.369 22.38-54.271 14.924-14.893 33.046-22.339 54.365-22.339 21.315 0 39.434 7.446 54.359 22.339 14.92 14.902 22.382 32.98 22.382 54.271 0 21.274-7.462 39.371-22.382 54.263-14.918 14.892-33.037 22.334-54.359 22.334zM76.745 140.166c-21.322 0-39.439-7.445-54.365-22.342-14.918-14.892-22.38-32.977-22.38-54.261 0-21.274 7.462-39.371 22.386-54.266 14.924-14.892 33.046-22.338 54.365-22.338 21.315 0 39.434 7.446 54.359 22.338 14.92 14.893 22.382 32.99 22.382 54.266 0 21.284-7.462 39.369-22.386 54.263-14.921 14.892-33.041 22.341-54.361 22.341zM435.145 685.958c-21.322 0-39.439-7.445-54.365-22.342-14.918-14.892-22.38-32.977-22.38-54.261 0-21.274 7.462-39.371 22.386-54.266 14.924-14.892 33.046-22.338 54.365-22.338 21.315 0 39.434 7.446 54.359 22.338 14.92 14.893 22.382 32.99 22.382 54.266 0 21.284-7.462 39.369-22.386 54.263-14.921 14.892-33.041 22.341-54.361 22.341zM435.149 958.858c-21.322 0-39.439-7.449-54.365-22.342-14.918-14.898-22.38-32.983-22.38-54.263 0-21.283 7.458-39.369 22.38-54.267 14.924-14.893 33.046-22.339 54.365-22.339 21.315 0 39.434 7.447 54.359 22.339 14.92 14.898 22.382 32.986 22.382 54.267s-7.462 39.365-22.382 54.263c-14.918 14.893-33.037 22.342-54.359 22.342zM435.149 413.062c-21.322 0-39.445-7.442-54.365-22.334-14.918-14.902-22.38-32.99-22.38-54.263 0-21.291 7.458-39.369 22.38-54.271 14.924-14.893 33.046-22.339 54.365-22.339 21.315 0 39.434 7.446 54.359 22.339 14.92 14.902 22.382 32.98 22.382 54.271 0 21.274-7.462 39.371-22.382 54.263-14.918 14.892-33.037 22.334-54.359 22.334zM435.145 140.166c-21.322 0-39.439-7.445-54.365-22.342-14.918-14.892-22.38-32.977-22.38-54.261 0-21.274 7.462-39.371 22.386-54.266 14.924-14.892 33.046-22.338 54.365-22.338 21.315 0 39.434 7.446 54.359 22.338 14.92 14.893 22.382 32.99 22.382 54.266 0 21.284-7.462 39.369-22.386 54.263-14.921 14.892-33.041 22.341-54.361 22.341z" />
<glyph unicode="&#xe924;" glyph-name="pm-kanboard-view" horiz-adv-x="931" d="M930.909 35.097v825.806c0 54.503-43.658 99.097-97.018 99.097s-97.018-44.594-97.018-99.097v-825.806c0-54.503 43.658-99.097 97.018-99.097s97.018 44.594 97.018 99.097zM575.177 35.097v825.806c0 54.503-43.658 99.097-97.018 99.097s-97.018-44.594-97.018-99.097v-825.806c0-54.503 43.658-99.097 97.018-99.097s97.018 44.594 97.018 99.097zM219.445 35.097v825.806c0 54.503-43.658 99.097-97.018 99.097s-97.018-44.594-97.018-99.097v-825.806c0-54.503 43.658-99.097 97.018-99.097s97.018 44.594 97.018 99.097z" />
<glyph unicode="&#xe925;" glyph-name="pm-list-view" horiz-adv-x="1126" d="M1017.394 960h-908.387c-59.954 0-109.006-48.024-109.006-106.72s49.053-106.72 109.006-106.72h908.387c59.954 0 109.006 48.024 109.006 106.72s-49.053 106.72-109.006 106.72zM1017.394 568.695h-908.387c-59.954 0-109.006-48.024-109.006-106.72s49.053-106.72 109.006-106.72h908.387c59.954 0 109.006 48.024 109.006 106.72s-49.053 106.72-109.006 106.72zM1017.394 177.39h-908.387c-59.954 0-109.006-48.024-109.006-106.72s49.053-106.72 109.006-106.72h908.387c59.954 0 109.006 48.024 109.006 106.72s-49.053 106.72-109.006 106.72z" />
<glyph unicode="&#xe926;" glyph-name="pm-task-count" horiz-adv-x="1331" d="M142.527 586.484c-39.598 0-73.245-13.536-100.963-40.622-27.706-27.076-41.564-59.959-41.564-98.657 0-38.681 13.858-71.583 41.574-98.665 27.716-27.076 61.37-40.614 100.963-40.614 39.585 0 73.234 13.538 100.953 40.614 27.708 27.079 41.566 59.981 41.566 98.665 0 38.699-13.858 71.581-41.574 98.66-27.711 27.076-61.363 40.62-100.955 40.62zM142.535 957.924c-39.598 0-73.245-13.543-100.963-40.622-27.706-27.086-41.564-59.969-41.564-98.66 0-38.696 13.85-71.581 41.564-98.667 27.716-27.079 61.37-40.617 100.963-40.617 39.585 0 73.234 13.541 100.953 40.617 27.708 27.086 41.566 59.974 41.566 98.667 0 38.691-13.858 71.573-41.566 98.66-27.706 27.079-61.355 40.622-100.953 40.622zM142.535 215.046c-39.598 0-73.255-13.531-100.963-40.607-27.706-27.094-41.564-59.981-41.564-98.66 0-38.711 13.85-71.581 41.564-98.675 27.716-27.079 61.37-40.617 100.963-40.617 39.585 0 73.234 13.538 100.953 40.617 27.708 27.094 41.566 59.964 41.566 98.675 0 38.681-13.858 71.583-41.566 98.66-27.706 27.076-61.355 40.607-100.953 40.607zM1323.184 904.607c-4.714 4.581-10.267 6.881-16.71 6.881h-902.66c-6.43 0-11.999-2.292-16.7-6.881-4.698-4.604-7.051-10.034-7.051-16.32v-139.297c0-6.289 2.353-11.716 7.051-16.323 4.703-4.586 10.273-6.881 16.7-6.881h902.66c6.443 0 12.002 2.287 16.71 6.881 4.706 4.604 7.046 10.034 7.046 16.323v139.294c-0.003 6.286-2.35 11.726-7.046 16.323zM1306.474 540.056h-902.66c-6.43 0-11.999-2.287-16.7-6.891-4.698-4.591-7.051-10.034-7.051-16.32v-139.292c0-6.281 2.353-11.721 7.051-16.315 4.703-4.607 10.273-6.896 16.7-6.896h902.66c6.443 0 12.002 2.287 16.71 6.896 4.706 4.594 7.046 10.034 7.046 16.315v139.292c0 6.286-2.348 11.739-7.046 16.32-4.716 4.594-10.27 6.891-16.71 6.891zM1306.474 168.631h-902.66c-6.43 0-11.999-2.294-16.7-6.896-4.698-4.599-7.051-10.034-7.051-16.313v-139.292c0-6.296 2.353-11.729 7.051-16.331 4.703-4.591 10.273-6.878 16.7-6.878h902.66c6.443 0 12.002 2.287 16.71 6.878 4.706 4.602 7.046 10.034 7.046 16.331v139.292c0 6.279-2.348 11.732-7.046 16.313-4.716 4.584-10.27 6.896-16.71 6.896z" />
<glyph unicode="&#xe927;" glyph-name="pm-comment" d="M512.001 960c-282.316 0-511.999-217.591-511.999-485.053 0-93.507 28.109-184.069 81.374-262.36-10.086-117.437-37.12-204.62-76.373-245.922-5.188-5.461-6.485-13.815-3.209-20.714 2.918-6.162 8.875-9.953 15.275-9.953 0.785 0 1.587 0.054 2.389 0.18 6.912 1.024 167.475 25.367 283.596 95.897 65.963-28.007 136.209-42.182 208.947-42.182 282.316 0 511.999 217.591 511.999 485.053s-229.683 485.053-511.999 485.053z" />
<glyph unicode="&#xe928;" glyph-name="pm-left-arrow" horiz-adv-x="1593" d="M1592.889 533.333h-1256.612l318.578 307.2-123.891 119.467-530.963-512 530.963-512 123.891 119.467-318.578 307.2h1256.612z" />
<glyph unicode="&#xe929;" glyph-name="pm-move" d="M1013.136 473.71l-146.287 146.287c-7.233 7.239-15.807 10.856-25.715 10.856-9.903 0-18.471-3.617-25.713-10.856-7.231-7.243-10.856-15.816-10.856-25.719v-73.149h-219.43v219.434h73.151c9.903 0 18.477 3.621 25.713 10.856 7.233 7.239 10.85 15.804 10.85 25.713 0 9.911-3.617 18.484-10.85 25.721l-146.289 146.289c-7.231 7.237-15.802 10.856-25.713 10.856s-18.477-3.621-25.719-10.856l-146.283-146.289c-7.241-7.243-10.856-15.816-10.856-25.721 0-9.899 3.617-18.472 10.856-25.713 7.243-7.235 15.807-10.856 25.719-10.856h73.143v-219.436h-219.428v73.149c0 9.911-3.621 18.482-10.86 25.719-7.243 7.239-15.816 10.856-25.719 10.856-9.901 0-18.473-3.617-25.713-10.856l-146.285-146.285c-7.235-7.239-10.856-15.808-10.856-25.713s3.621-18.48 10.856-25.713l146.285-146.283c7.239-7.231 15.806-10.87 25.713-10.87 9.911 0 18.482 3.637 25.719 10.87 7.239 7.225 10.86 15.808 10.86 25.713v73.153h219.428v-219.436h-73.137c-9.911 0-18.483-3.625-25.721-10.856-7.239-7.239-10.856-15.808-10.856-25.713s3.617-18.48 10.856-25.727l146.285-146.277c7.247-7.233 15.816-10.856 25.721-10.856 9.903 0 18.485 3.623 25.713 10.856l146.281 146.277c7.247 7.245 10.864 15.822 10.864 25.727s-3.617 18.472-10.864 25.713c-7.233 7.231-15.808 10.856-25.713 10.856h-73.137v219.43h219.426v-73.161c0-9.903 3.617-18.478 10.848-25.713 7.247-7.231 15.822-10.864 25.727-10.864 9.895 0 18.465 3.631 25.713 10.864l146.281 146.291c7.239 7.239 10.856 15.814 10.856 25.719s-3.617 18.474-10.864 25.713z" />
<glyph unicode="&#xe92a;" glyph-name="pm-settings" d="M12.8 409.6c0 25.6 0 51.2 0 76.8 6.4 16.64 19.2 24.32 35.84 26.88 29.44 3.84 58.88 10.24 89.6 14.080 7.68 1.28 12.8 3.84 14.080 12.8 7.68 34.56 21.76 66.56 39.68 96 3.84 6.4 3.84 10.24 0 16.64-17.92 25.6-37.12 51.2-55.040 76.8-12.8 17.92-11.52 33.28 3.84 49.92 12.8 12.8 24.32 24.32 37.12 37.12 15.36 15.36 30.72 16.64 48.64 3.84 25.6-17.92 51.2-37.12 78.080-55.040 2.56-2.56 10.24-3.84 12.8-1.28 33.28 19.2 66.56 33.28 103.68 43.52 3.84 1.28 7.68 5.12 7.68 8.96 5.12 28.16 10.24 56.32 14.080 84.48 2.56 19.2 7.68 35.84 26.88 44.8 25.6 0 51.2 0 76.8 0 16.64-6.4 24.32-19.2 26.88-37.12 3.84-29.44 8.96-58.88 14.080-88.32 1.28-5.12 1.28-11.52 8.96-12.8 43.52-10.24 84.48-28.16 121.6-55.040 6.4-3.84 8.96-2.56 15.36 0 26.88 16.64 53.76 34.56 80.64 51.2 17.92 11.52 34.56 8.96 48.64-7.68 10.24-11.52 21.76-24.32 32-35.84 17.92-20.48 17.92-34.56 1.28-55.040-19.2-24.32-38.4-48.64-58.88-71.68-3.84-5.12-5.12-8.96-2.56-15.36 10.24-26.88 20.48-53.76 30.72-79.36 1.28-3.84 6.4-8.96 10.24-8.96 24.32-5.12 48.64-7.68 72.96-12.8s47.36-5.12 56.32-30.72c0-25.6 0-51.2 0-76.8-6.4-12.8-14.080-21.76-28.16-24.32-32-5.12-64-11.52-97.28-15.36-7.68-1.28-11.52-3.84-12.8-11.52-7.68-34.56-21.76-67.84-40.96-98.56-3.84-6.4-3.84-10.24 0-15.36 19.2-26.88 38.4-53.76 57.6-80.64 11.52-16.64 10.24-32-3.84-47.36-12.8-12.8-25.6-25.6-38.4-38.4-15.36-15.36-30.72-16.64-48.64-3.84-26.88 19.2-53.76 38.4-80.64 57.6-5.12 3.84-10.24 3.84-15.36 0-30.72-19.2-62.72-32-97.28-40.96-7.68-1.28-10.24-5.12-11.52-12.8-3.84-24.32-7.68-49.92-11.52-74.24-3.84-20.48-3.84-42.24-29.44-51.2-25.6 0-51.2 0-76.8 0-15.36 7.68-23.040 19.2-25.6 37.12-3.84 30.72-10.24 61.44-15.36 92.16 0 3.84-3.84 7.68-6.4 8.96-46.080 11.52-88.32 30.72-126.72 57.6-15.36-10.24-30.72-19.2-44.8-28.16-15.36-8.96-30.72-19.2-46.080-28.16-16.64-10.24-33.28-7.68-46.080 6.4-11.52 12.8-23.040 26.88-35.84 39.68-15.36 17.92-15.36 32 0 51.2 19.2 24.32 39.68 48.64 58.88 72.96 5.12 6.4 5.12 10.24 1.28 16.64-11.52 26.88-21.76 53.76-30.72 81.92-2.56 6.4-5.12 8.96-11.52 10.24-29.44 5.12-57.6 10.24-87.040 14.080-19.2 0-34.56 5.12-40.96 24.32zM711.68 448c0 110.080-89.6 200.96-199.68 202.24s-200.96-89.6-202.24-199.68c0-111.36 89.6-202.24 200.96-202.24 110.080-1.28 199.68 88.32 200.96 199.68z" />
<glyph unicode="&#xe92b;" glyph-name="pm-search" d="M998.939 82.078l-222.459 222.455c-1.182 1.182-2.569 2.009-3.805 3.109 43.773 66.399 69.32 145.881 69.32 231.356 0 232.514-188.488 421.002-420.998 421.002s-420.998-188.488-420.998-420.998c0-232.506 188.484-420.998 420.994-420.998 85.479 0 164.957 25.548 231.356 69.32 1.1-1.231 1.923-2.618 3.105-3.8l222.463-222.463c33.419-33.414 87.598-33.414 121.021 0 33.414 33.419 33.414 87.598 0 121.017zM424.608 243.768c-161.586 0-292.574 130.987-292.574 292.569 0 161.586 130.992 292.574 292.574 292.574 161.578 0 292.569-130.991 292.569-292.574s-130.991-292.569-292.569-292.569z" />
<glyph unicode="&#xe92c;" glyph-name="pm-activity" d="M14.477 449.011c0 143.168 0 286.323 0 429.491 0 40.819 26.342 67.021 67.354 67.021 286.976 0 573.952 0 860.928 0 40.282 0 66.752-26.419 66.765-66.611 0.013-287.296 0-574.605 0-861.901 0-40.128-26.547-66.534-66.867-66.534-286.976 0-573.952 0-860.928 0-41.011 0-67.251 26.176-67.251 67.098 0 143.808 0 287.616 0 431.437zM139.213 75.456c249.024 0 497.216 0 745.254 0 0 103.77 0 206.861 0 310.387-28.902 0-57.050 0.205-85.197-0.282-3.251-0.051-7.475-3.238-9.498-6.182-14.464-21.005-28.48-42.33-42.65-63.552-31.002-46.451-61.939-92.954-93.043-139.341-10.79-16.090-24.422-15.962-35.392-0.026-0.922 1.331-1.92 2.598-2.829 3.955-59.955 90.010-119.885 180.019-179.853 270.016-15.859 23.808-31.834 47.552-48.32 72.166-2.445-3.507-4.288-6.054-6.029-8.666-26.522-39.744-53.158-79.424-79.411-119.347-4.134-6.298-8.422-9.024-16.269-8.947-45.338 0.422-90.675 0.205-136.013 0.205-3.456 0-6.912 0-10.765 0 0.013-103.949 0.013-206.822 0.013-310.387zM884.506 510.157c0 104.333 0 207.437 0 310.298-248.909 0-497.114 0-745.216 0 0-103.642 0-206.515 0-310.285 27.622 0 54.746 0.192 81.856-0.141 6.528-0.077 10.355 1.882 14.054 7.488 43.584 65.971 87.501 131.725 131.341 197.53 1.075 1.613 2.266 3.149 3.379 4.749 11.059 15.846 24.563 15.846 35.443-0.448 63.488-95.027 126.861-190.131 190.285-285.197 13.35-20.006 26.765-39.974 40.614-60.659 2.394 3.315 4.147 5.568 5.722 7.936 25.971 38.938 52.25 77.67 77.619 116.992 5.798 8.986 11.84 12.16 22.451 12.019 47.27-0.64 94.528-0.282 142.451-0.282z" />
<glyph unicode="&#xe92d;" glyph-name="pm-invoice" d="M640 960v-256h256zM640 640c-35.264 0-64 28.736-64 64v256h-384c-35.264 0-64-28.736-64-64v-896c0-35.328 28.736-64 64-64h640c35.328 0 64 28.672 64 64v640h-256zM352 764.032v35.968c0 17.664 14.336 32 32 32s32-14.336 32-32v-36.032c20.032-4.544 38.72-12.992 54.144-25.536 13.76-11.136 15.808-31.296 4.608-44.992-11.2-13.76-31.36-15.744-44.992-4.608-12.096 9.792-28.352 15.168-45.76 15.168-34.688 0-64-21.952-64-48s29.312-48 64-48c70.592 0 128-50.24 128-112 0-52.032-40.96-95.488-96-108.032v-35.968c0-17.664-14.336-32-32-32s-32 14.336-32 32v36.032c-20.032 4.544-38.72 12.992-54.144 25.536-13.76 11.2-15.808 31.36-4.608 45.056 11.2 13.824 31.296 15.744 44.992 4.608 12.096-9.856 28.352-15.232 45.76-15.232 34.688 0 64 21.952 64 48s-29.312 48-64 48c-70.592 0-128 50.24-128 112 0 52.032 40.96 95.488 96 108.032zM736 64h-448c-17.664 0-32 14.336-32 32s14.336 32 32 32h448c17.664 0 32-14.336 32-32s-14.336-32-32-32zM736 192h-448c-17.664 0-32 14.336-32 32s14.336 32 32 32h448c17.664 0 32-14.336 32-32s-14.336-32-32-32zM736 320h-128c-17.664 0-32 14.336-32 32s14.336 32 32 32h128c17.664 0 32-14.336 32-32s-14.336-32-32-32zM736 448h-128c-17.664 0-32 14.336-32 32s14.336 32 32 32h128c17.664 0 32-14.272 32-32 0-17.664-14.336-32-32-32z" />
<glyph unicode="&#xe92e;" glyph-name="pm-enter" horiz-adv-x="1536" d="M1370.825 840.304v-318.782h-1051.982l286.904 286.904-111.574 111.574-478.174-478.174 478.174-478.174 111.574 111.574-286.904 286.904h1211.373v478.174z" />
<glyph unicode="&#xe92f;" glyph-name="pm-navigation" d="M556.933 660.422h-160.995v-294.048l-229.14 0.057v293.991h-160.981l275.557 282.124 275.557-282.124zM723.896-51.062l275.53 282.109h-160.953v294.020l-229.14 0.057v-294.077h-160.981l275.544-282.109z" />
<glyph unicode="&#xe930;" glyph-name="pm-gantchart" d="M64 896h512v-128h-512v128zM192 640h512v-128h-512v128zM704 896h256v-128h-256v128zM832 640h128v-128h-128v128zM64 384h128v-128h-128v128zM64 128h256v-128h-256v128zM320 384h512v-128h-512v128zM448 128h512v-128h-512v128z" />
<glyph unicode="&#xe931;" glyph-name="pm-switch-project" horiz-adv-x="956" d="M665.708-8.942c-1.762 2.055-3.406 4.233-4.927 6.519-17.051 28.649-13.329 66.963 8.819 90.779l19.159 21.581c6.616 7.427 14.206 13.666 22.504 18.498l22.808 13.36h-566.853c-30.88-1.357-58.069 22.738-64.166 56.866-4.873 37.438 18.121 72.238 51.356 77.725 3.134 0.518 6.299 0.758 9.465 0.722h569.286l-17.942 9.249c-9.591 4.999-18.338 11.838-25.849 20.211l-20.071 22.609c-22.148 23.817-25.87 62.13-8.819 90.779 19.845 30.529 57.902 37.157 85.005 14.803 2.19-1.807 4.271-3.777 6.227-5.896l152.053-171.282c23.766-26.741 23.787-70.121 0.048-96.892-0.015-0.017-0.032-0.036-0.048-0.054l-152.053-171.282c-24.167-26.281-62.67-25.519-86.001 1.702zM201.426 469.886l-149.536 167.751c-23.656 26.562-23.677 69.65-0.047 96.242 0.015 0.017 0.032 0.036 0.047 0.053l151.352 170.133c21.046 24.782 54.901 28.946 80.217 9.868 26.977-22.205 32.834-64.787 13.081-95.113-1.597-2.45-3.337-4.779-5.21-6.967l-20.584-23.138c-9.874-11.091-21.889-19.476-35.114-24.499l-18.768-9.187h571.809c30.927 1.291 58.061-22.994 63.871-57.165 5.352-37.1-17.063-72.054-50.069-78.070-3.462-0.632-6.966-0.923-10.472-0.872h-575.139l17.254-6.805c12.763-5.11 24.347-13.364 33.903-24.159l21.795-24.499c23.651-26.566 23.666-69.655 0.032-96.242-1.175-1.321-2.397-2.588-3.665-3.796-25.486-22.823-62.249-20.018-84.757 6.465z" />
<glyph unicode="&#xe932;" glyph-name="pm-integration" d="M1011.712 796.16c0 4.096-4.096 4.096-4.096 4.096l-172.032 143.36c-20.48 20.48-57.344 16.384-77.824-4.096v0c-24.576-20.48-20.48-57.344 4.096-77.824l57.344-49.152h-487.424c-139.264 0-249.856-110.592-249.856-249.856v-73.728c-4.096-28.672 20.48-57.344 49.152-61.44 32.768 0 57.344 24.576 61.44 53.248 0 4.096 0 8.192 0 8.192v77.824c0 77.824 61.44 139.264 139.264 139.264h487.424l-57.344-49.152c-24.576-20.48-24.576-57.344-8.192-77.824 8.192-12.288 24.576-16.384 36.864-20.48 16.384 0 28.672 4.096 40.96 12.288l172.032 147.456c24.576 16.384 28.672 53.248 8.192 77.824v0zM884.736 460.288c-28.672 0-57.344-24.576-57.344-57.344v0-73.728c0-77.824-61.44-139.264-139.264-139.264h-483.328l53.248 45.056c24.576 16.384 36.864 49.152 20.48 73.728-16.384 28.672-49.152 36.864-73.728 20.48-4.096-4.096-12.288-8.192-12.288-12.288l-172.032-147.456c-24.576-20.48-28.672-53.248-8.192-77.824v0l8.192-8.192 172.032-143.36c24.576-20.48 57.344-20.48 77.824 4.096s20.48 57.344-4.096 77.824c0 0-4.096 0-4.096 4.096l-57.344 57.344h487.424c139.264 0 249.856 110.592 249.856 249.856v0 73.728c0 28.672-24.576 53.248-57.344 53.248v0z" />
<glyph unicode="&#xe933;" glyph-name="label_outline" d="M682 212.667l152 214-152 214h-468v-428h468zM752 688.667l186-262-186-262c-16-22-42-36-70-36h-468c-46 0-86 38-86 84v428c0 46 40 84 86 84h468c28 0 54-14 70-36z" />
<glyph unicode="&#xe934;" glyph-name="pm-fullscreen" d="M349.091 960h-325.818c-12.864 0-23.273-10.409-23.273-23.273v-325.818c0-12.864 10.409-23.273 23.273-23.273h46.545c12.864 0 23.273 10.409 23.273 23.273v255.999h255.999c12.864 0 23.273 10.409 23.273 23.273v46.545c0 12.864-10.409 23.273-23.273 23.273zM1000.729 960h-325.82c-12.864 0-23.273-10.409-23.273-23.273v-46.545c0-12.864 10.409-23.273 23.273-23.273h255.999v-255.999c0-12.864 10.409-23.273 23.273-23.273h46.545c12.864 0 23.273 10.409 23.273 23.273v325.818c0 12.864-10.407 23.273-23.271 23.273zM1000.729 308.362h-46.545c-12.864 0-23.273-10.409-23.273-23.273v-255.999h-256.002c-12.864 0-23.273-10.409-23.273-23.273v-46.545c0-12.864 10.409-23.273 23.273-23.273h325.818c12.864 0 23.273 10.409 23.273 23.273v325.82c0 12.864-10.407 23.271-23.271 23.271zM349.091 29.090h-255.999v256.002c0 12.864-10.409 23.273-23.273 23.273h-46.545c-12.864-0.002-23.273-10.409-23.273-23.273v-325.818c0-12.864 10.409-23.273 23.273-23.273h325.818c12.864 0 23.273 10.409 23.273 23.273v46.545c0 12.862-10.409 23.271-23.273 23.271z" />
<glyph unicode="&#xe935;" glyph-name="pm-automation" d="M550.945 166.975c-12.152 12.152-31.857 12.152-44.011 0s-12.154-31.857 0-44.011l26.627-26.627h-118.251c-17.187 0-31.121-13.934-31.121-31.121s13.934-31.121 31.121-31.121h118.251l-26.627-26.627c-12.154-12.152-12.154-31.857 0-44.011s31.857-12.154 44.011 0l79.752 79.752c12.154 12.152 12.154 31.857 0 44.011l-79.752 79.754zM608.682 497.441h-118.259l26.639 26.639c12.158 12.137 12.158 31.847 0 44.005s-31.847 12.158-44.005 0l-79.752-79.752c-12.158-12.158-12.158-31.868 0-44.005l79.752-79.752c12.154-12.156 31.822-12.185 44.005 0 12.158 12.137 12.158 31.847 0 44.005l-26.619 26.619h118.238c17.199 0 31.121 13.942 31.121 31.121 0 17.199-13.921 31.121-31.121 31.121zM828.333 272.333c17.307 0 31.121 14.060 31.121 31.121v294.714c0 17.179-13.942 31.121-31.121 31.121s-31.121-13.942-31.121-31.121v-294.714c0-17.098 13.851-31.121 31.121-31.121zM193.675 629.289c-17.179 0-31.121-13.942-31.121-31.121v-294.714c0-17.096 13.849-31.121 31.121-31.121 17.307 0 31.121 14.060 31.121 31.121v294.714c0 17.179-13.942 31.121-31.121 31.121zM992.879 941.659h-961.758c-17.179 0-31.121-13.942-31.121-31.121v-189.235c0-17.179 13.942-31.121 31.121-31.121h19.668c0-58.866 0-599.398 0-616.006 0-26.069 30.196-40.567 50.582-24.295l92.304 74.005 92.304-74.005c20.343-16.231 50.602-1.793 50.602 24.295v148.363h348.844v-148.363c0-25.996 30.173-40.602 50.602-24.295l92.304 74.005 92.304-74.005c20.316-16.206 50.582-1.907 50.582 24.295 0 20.125 0 551.096 0 616.006h21.66c17.179 0 31.121 13.942 31.121 31.121v189.235c0 17.179-13.942 31.121-31.121 31.121zM62.242 879.418h899.517c0-15.567 0-112.662 0-126.994-28.098 0-863.323 0-899.517 0 0 15.092 0 111.94 0 126.994zM274.341 139.012l-61.204 49.046c-11.367 9.127-27.552 9.129-38.922 0l-61.184-49.046c0 22 0 521.17 0 551.171h161.31c0-21.54 0-529.533 0-551.171zM336.582 284.782v405.401h348.844v-405.401h-348.844zM908.977 139.012l-61.184 49.046c-11.365 9.127-27.552 9.129-38.922 0l-61.204-49.046c0 21.154 0 527.355 0 551.171h161.31c0-29.741 0-526.959 0-551.171zM865.74 784.81h25.934c17.148 0 31.121 13.896 31.121 31.121 0 17.179-13.942 31.121-31.121 31.121h-25.934c-17.179 0-31.121-13.942-31.121-31.121 0-17.22 13.965-31.121 31.121-31.121zM716.547 784.81h25.934c17.262 0 31.121 13.963 31.121 31.121 0 17.179-13.921 31.121-31.121 31.121h-25.934c-17.179 0-31.121-13.942-31.121-31.121 0-17.297 14.017-31.121 31.121-31.121z" />
<glyph unicode="&#xe9ce;" glyph-name="pm-eye" d="M512 768c-223.318 0-416.882-130.042-512-320 95.118-189.958 288.682-320 512-320 223.312 0 416.876 130.042 512 320-95.116 189.958-288.688 320-512 320zM764.45 598.296c60.162-38.374 111.142-89.774 149.434-150.296-38.292-60.522-89.274-111.922-149.436-150.296-75.594-48.218-162.89-73.704-252.448-73.704-89.56 0-176.858 25.486-252.452 73.704-60.158 38.372-111.138 89.772-149.432 150.296 38.292 60.524 89.274 111.924 149.434 150.296 3.918 2.5 7.876 4.922 11.86 7.3-9.96-27.328-15.41-56.822-15.41-87.596 0-141.382 114.616-256 256-256 141.382 0 256 114.618 256 256 0 30.774-5.452 60.268-15.408 87.598 3.978-2.378 7.938-4.802 11.858-7.302v0zM512 544c0-53.020-42.98-96-96-96s-96 42.98-96 96 42.98 96 96 96 96-42.982 96-96z" />
<glyph unicode="&#xea2e;" glyph-name="pm-loop" d="M889.68 793.68c-93.608 102.216-228.154 166.32-377.68 166.32-282.77 0-512-229.23-512-512h96c0 229.75 186.25 416 416 416 123.020 0 233.542-53.418 309.696-138.306l-149.696-149.694h352v352l-134.32-134.32zM928 448c0-229.75-186.25-416-416-416-123.020 0-233.542 53.418-309.694 138.306l149.694 149.694h-352v-352l134.32 134.32c93.608-102.216 228.154-166.32 377.68-166.32 282.77 0 512 229.23 512 512h-96z" />
<glyph unicode="&#xea5b;" glyph-name="pm-filter" d="M512 960c-282.77 0-512-71.634-512-160v-96l384-384v-320c0-35.346 57.306-64 128-64 70.692 0 128 28.654 128 64v320l384 384v96c0 88.366-229.23 160-512 160zM94.384 821.176c23.944 13.658 57.582 26.62 97.278 37.488 87.944 24.076 201.708 37.336 320.338 37.336 118.628 0 232.394-13.26 320.338-37.336 39.696-10.868 73.334-23.83 97.28-37.488 15.792-9.006 24.324-16.624 28.296-21.176-3.972-4.552-12.506-12.168-28.296-21.176-23.946-13.658-57.584-26.62-97.28-37.488-87.942-24.076-201.708-37.336-320.338-37.336s-232.394 13.26-320.338 37.336c-39.696 10.868-73.334 23.83-97.278 37.488-15.792 9.008-24.324 16.624-28.298 21.176 3.974 4.552 12.506 12.168 28.298 21.176z" />
</font>
</defs>
</svg>
